#TITLE:1,2,3,4 Back;
#SUBTITLE:;
#ARTIST:A'ST1;
#TITLETRANSLIT:1,2,3,4 Back;
#SUBTITLETRANSLIT:;
#ARTISTTRANSLIT:A'ST1;
#CREDIT:;
#BANNER:1,2,3,4 Back-bn.png;
#BACKGROUND:1,2,3,4 Back-bg.png;
#LYRICSPATH:;
#CDTITLE:pm4cd.png;
#MUSIC:1.2.3.4 Back.mp3;
#OFFSET:-0.020;
#SAMPLESTART:38.170;
#SAMPLELENGTH:20.000;
#SELECTABLE:YES;
#BPMS:0.000=119.000,36.750=238.000,51.000=119.000,146.750=59.500,148.875=119.000,260.750=59.500,281.000=119.000;
#STOPS:;
#BGCHANGES:;
// cache tags:
#FIRSTBEAT:7.750;
#LASTBEAT:376.500;
#SONGFILENAME:Songs/Music V.I.P ^_^/1,2,3,4 Back/1,2,3,4 Back.sm;
#HASMUSIC:1;
#HASBANNER:1;
#MUSICLENGTH:203.368;
// end cache tags

//---------------dance-single - Copied from----------------
#NOTES:
     dance-single:
     Copied from:
     Hard:
     15:
     1.000,1.000,1.000,0.256,1.000,1097.000,375.000,52.000,0.000,138.000:
0000
0000
0000
0000
,
0000
0000
0000
0000
0000
0000
0000
0000
0000
0000
0000
0000
0000
0000
0000
0001
,
0001
0001
0000
0100
0100
0100
0000
0010
0010
0010
0000
1000
1000
1000
0000
0100
,
0100
0100
0000
0010
0010
0010
0000
0001
0001
0001
0000
0100
0100
0100
0000
1000
,
1000
1100
0000
0010
0010
1010
0000
0001
0001
1001
0000
0010
0010
0110
0000
1000
,
1000
1010
0000
0010
0010
0011
0000
0001
0001
0101
0000
0110
0000
1000
1000
1111
,
0000
0100
0000
0101
0000
0001
0010
1100
0000
1000
0000
1001
0000
1000
0100
0011
,
0000
0100
0000
0101
0000
0001
0010
1100
0000
1000
0000
1001
0000
0100
0000
0011
,
0000
0110
0000
1100
0000
0110
0000
0011
0000
0110
0000
1100
0000
0110
0000
0111
,
0000
0000
0000
2210
0000
0000
0000
0000
0000
0000
0000
0000
0000
0000
0000
0000
,
0000
0000
0000
0000
0000
0000
0000
0001
0000
0010
0000
3322
0000
0000
0000
0000
,
0000
0000
0000
0000
,
0000
0000
0000
1133
0000
0000
0000
0000
0000
0000
0000
1011
0000
0001
0000
0110
,
0000
1001
0000
0101
0000
0010
0000
1100
0000
0010
0000
0101
0000
0010
0000
1100
,
0000
0011
0000
0110
0000
1000
0000
0101
0000
0100
0000
0110
0000
1001
0000
0100
,
0000
1010
0000
0101
0000
1000
0000
1100
0000
0010
0000
0101
0000
0010
0000
1100
,
0000
0210
0000
0012
0000
0000
0000
1310
0000
0000
0000
1103
0000
0010
0000
1100
,
0000
1010
0000
1100
0000
0010
0000
1001
0000
0100
0000
0101
0000
0001
0000
0011
,
0000
1001
0000
1100
0000
1000
0000
0101
0000
0010
0000
1100
0000
0001
0000
0101
,
0000
1001
0000
0101
0000
0010
0000
1100
0000
1000
0000
1001
0000
0100
0000
0011
,
0000
1010
0000
0101
0000
0001
0000
1100
0000
0010
0000
1111
1000
0100
0010
0101
,
0010
0100
1000
0001
1000
0100
0010
1100
0010
0001
0010
0100
0010
0100
1000
0101
,
0010
0100
0010
0001
1000
0100
0010
1100
0010
0001
0010
0100
0010
0100
0010
1001
,
0010
0100
1000
0100
0010
0001
0010
0101
0010
0001
0010
0100
1000
0100
0010
1001
,
0100
1000
0100
0002
0010
0100
1000
0110
1000
0100
0010
2103
0010
0001
0010
3101
,
0000
1000
0000
2001
0010
0100
0010
3101
0000
0001
0000
1020
0100
1000
0100
1031
,
0000
0100
0000
0012
0100
1000
0100
1013
0000
0100
0000
0120
1000
0100
1000
0101
,
1000
0100
1000
0131
0010
0001
0010
0001
0010
0100
1000
0111
0000
0000
0000
1110
,
0000
0110
0000
1001
1000
0110
0100
0101
1000
1001
1000
0111
1000
0100
0001
1100
,
0010
1000
0100
0010
0001
0100
0010
1001
0100
0010
0100
1000
0001
0100
0010
1100
,
0010
0001
0100
0001
1000
0010
0100
1010
0100
1000
0010
0001
0100
1000
0100
0011
,
0100
0010
0100
1000
0010
0001
0010
0101
1000
0100
0010
0001
0100
0010
1000
0011
,
0100
0001
1000
0001
0100
0001
1000
0101
0010
0001
0010
1200
0010
1000
0010
1301
,
0000
0001
0000
0120
0001
0100
1000
0131
0000
0100
0000
0012
0100
1000
0100
1013
,
0000
1000
0000
2100
0010
0001
0010
3101
0000
0001
0000
1002
0010
0100
1000
0110
,
1000
0100
0010
1103
0010
0100
0010
0100
1000
0100
0010
1101
0000
0000
0000
1012
,
0000
0000
0000
1100
0000
0000
0000
0000
0000
0110
0000
0000
0000
0000
0000
1000
0000
0000
0000
0000
0000
0010
0000
0000
0000
0000
0000
0100
0000
0000
0100
0000
0000
1213
0000
0000
0000
0000
0000
0000
0000
0000
0000
0000
0000
0000
0001
0000
,
0000
1010
0000
0311
0000
0100
0010
1100
0000
1001
0000
0101
0000
0001
0000
1100
,
0000
0010
0000
0101
0000
1000
0010
1100
0000
0110
0000
1100
0000
0001
0000
1010
,
0000
0100
0000
0011
0000
1000
0001
0110
0000
1001
0000
0110
0000
0001
0000
1010
,
0000
1000
0000
1100
0000
0001
0010
1100
0000
1010
0000
0101
0000
0010
0000
1001
,
0000
1000
0000
1100
0000
0100
0010
0101
0000
0001
0000
1100
0000
1000
0000
0101
,
0000
0010
0000
1001
0000
1000
0010
0101
0000
1010
0000
0110
0000
0100
0000
0011
,
0000
1000
0000
1001
0000
0001
0100
1010
0000
1100
0000
1010
0000
0001
0000
0011
,
0000
0010
0000
1001
0000
0010
0100
1010
0000
0010
0000
0111
0000
1110
0000
0111
,
0000
0010
0000
1111
0001
0010
0100
1000
0010
0001
0100
1010
0100
0010
1000
0100
,
0001
0100
0010
1001
0100
1000
0010
0001
0010
0001
0100
1010
0100
0010
0001
0100
,
0010
1000
0100
0011
0100
0010
0100
1000
0010
0100
0001
0110
1000
0100
0010
0001
,
0100
0010
0100
1001
0100
0010
0001
0010
0100
1000
0100
0021
1000
0100
1000
0100
,
0001
0100
0001
2130
0010
0100
0010
3101
0000
0001
0000
0102
0010
0100
1000
0113
,
0000
1000
0000
2100
0010
0001
0100
3011
0000
1000
0000
0120
1000
0001
0100
1031
,
0000
0001
0000
0201
0010
0001
0010
1001
0010
0001
1000
0311
1000
0010
0100
1010
,
0100
0010
0001
1110
0000
0000
0000
0111
0000
0101
0000
1010
0100
0001
0100
0001
,
1000
0001
0100
1011
0100
0010
0001
1010
0100
0010
0001
1100
0010
0001
0010
0101
,
0010
0100
1000
0011
0100
0010
0100
1001
0010
0001
0010
1100
0010
1000
0100
1001
,
0010
0001
0100
1010
0100
1000
0010
0101
0010
0001
1000
0110
0001
0010
0100
0011
,
0100
1000
0010
0101
0010
0100
0001
1010
0100
0010
0001
1100
0010
0100
0001
0110
,
0001
1000
0010
1002
1000
0010
0010
1013
0000
0110
0000
2010
0010
0001
0001
3011
,
0000
1100
0000
0201
0001
1000
1000
1301
0000
0101
0000
2100
0100
0010
0010
3011
,
0000
0110
0000
0102
0100
0110
0010
1010
1000
1100
0100
1113
0001
0010
0100
1000
,
0100
0010
0001
1110
0000
0000
0000
0211
0000
1010
0000
1310
0000
0100
0000
0000
,
0010
0000
0000
1101
0010
0100
0010
0001
0010
0100
1000
0100
0010
0001
0010
0100
,
1000
0100
1000
0100
0010
0100
1000
0100
0010
0001
0010
0001
0010
0001
0010
0100
,
1000
0100
0010
0100
0010
0001
0010
0100
1000
0100
0010
0100
0010
0001
0010
0100
,
0010
0100
1000
0100
0000
0001
0010
0100
1000
0100
0000
0010
0000
1000
0100
0010
,
0001
0010
0000
2000
0100
0010
0001
0010
0100
0010
0001
3020
0100
1000
0100
0001
,
0100
1000
0100
0032
0010
0100
1000
0100
0010
0100
1000
0203
0010
0001
0010
1000
,
0010
0001
0010
2300
0100
0010
0001
0110
0100
0011
0001
3120
0001
0100
1000
1100
,
0001
0100
1000
0132
0010
0100
1000
0100
0010
0100
1000
0123
0001
0100
1000
0100
,
0001
0100
1000
0231
0010
0001
0010
1000
0010
0001
0020
2300
0000
0000
0000
0000
,
0030
0110
0000
0111
0100
0010
0101
0000
0001
0010
0101
0000
0011
0000
0110
0000
,
0001
0010
0101
0000
0110
0000
0011
0000
0100
0010
0101
0000
0010
0000
0001
0000
,
0010
0000
3101
0000
1001
0010
1100
0000
1010
0000
0101
0000
1001
0100
0011
0000
,
0110
0000
1001
0000
0101
0010
1001
0000
0011
0000
1100
0000
0110
0000
1001
0000
,
0110
1011
1100
0101
0110
1010
0101
1010
,
1001
0110
1001
0101
0011
1001
1010
1100
,
1001
0101
1010
0101
1001
1010
0110
0101
,
1100
1110
0220
1001
1001
1001
1001
1001
,
1001
0000
0000
0330
1111
0000
0001
0000
0010
0000
0100
0000
0110
0000
0010
0000
0100
0000
1000
0000
1100
0000
1000
0000
0100
0000
0010
0000
0101
0000
0010
0000
,
0001
0010
1010
0100
0010
0001
0101
0010
0100
1000
1001
0100
1000
0100
0011
0100
,
0010
0001
0101
0010
0100
1000
0101
0010
0100
1000
0101
0010
0100
1000
0011
1000
,
0100
0010
1010
0010
0100
1000
1001
1000
0100
0010
0012
0010
0100
1000
1010
0100
,
1000
0100
1113
0001
0110
1000
0101
0000
1101
0000
0101
0010
1001
0010
1100
0000
,
0111
0000
0101
0010
1100
0001
1001
0000
1110
0000
1100
0100
0011
0100
1001
0000
,
1011
0000
1100
1000
0101
0010
0110
0000
1101
0000
0011
0001
0110
1000
0101
0000
,
0111
0000
1101
0000
0000
0000
1021
0000
1100
0000
1001
0100
1000
0100
1000
0100
,
1000
0100
1031
0100
0010
0100
1010
0010
0001
0010
0111
0010
0100
1000
1100
0010
,
0001
0010
1101
0010
1000
0100
1010
0100
0010
0001
0111
1000
0001
0100
1001
0010
,
0001
1000
1101
0010
0001
0100
1001
0010
0001
0010
1110
0001
0010
1000
0101
0010
,
0100
0001
1011
1000
0100
0010
1001
0010
0100
1000
1011
0100
0010
0001
0101
0100
,
1000
0010
0112
1000
1100
0010
1113
0000
1011
0000
1120
0001
0101
1000
1131
0000
,
1110
0000
1120
0001
1100
0001
1131
0000
1110
0000
2100
0001
0110
0001
3111
0000
,
1101
0000
2101
0010
0011
0001
0111
0100
0011
0001
0111
0001
0110
0001
3111
1000
,
0010
0100
1011
0000
0000
0000
1201
0000
1001
0000
0011
0000
0010
0000
0000
0001
,
0000
1311
0000
0000
0000
0000
0000
0000
;

//---------------dance-single - Copied from Copied f----------------
#NOTES:
     dance-single:
     Copied from Copied f:
     Easy:
     15:
     1.000,1.000,1.000,0.256,1.000,1097.000,375.000,52.000,0.000,138.000:
0000
0000
0000
0000
,
0000
0000
0000
0000
0000
0000
0000
0000
0000
0000
0000
0000
0000
0000
0000
0001
,
0001
0001
0000
0100
0100
0100
0000
0010
0010
0010
0000
1000
1000
1000
0000
0100
,
0100
0100
0000
0010
0010
0010
0000
0001
0001
0001
0000
0100
0100
0100
0000
1000
,
1000
1100
0000
0010
0010
1010
0000
0001
0001
1001
0000
0010
0010
0110
0000
1000
,
1000
1010
0000
0010
0010
0011
0000
0001
0001
0101
0000
0110
0000
1000
1000
1111
,
0000
0100
0000
0101
0000
0001
0010
1100
0000
1000
0000
1001
0000
1000
0100
0011
,
0000
0100
0000
0101
0000
0001
0010
1100
0000
1000
0000
1001
0000
0100
0000
0011
,
0000
0110
0000
1100
0000
0110
0000
0011
0000
0110
0000
1100
0000
0110
0000
0111
,
0000
0000
0000
2210
0000
0000
0000
0000
0000
0000
0000
0000
0000
0000
0000
0000
,
0000
0000
0000
0000
0000
0000
0000
0001
0000
0010
0000
3322
0000
0000
0000
0000
,
0000
0000
0000
0000
,
0000
0000
0000
1133
0000
0000
0000
0000
0000
0000
0000
1011
0000
0001
0000
0110
,
0000
1001
0000
0101
0000
0010
0000
1100
0000
0010
0000
0101
0000
0010
0000
1100
,
0000
0011
0000
0110
0000
1000
0000
0101
0000
0100
0000
0110
0000
1001
0000
0100
,
0000
1010
0000
0101
0000
1000
0000
1100
0000
0010
0000
0101
0000
0010
0000
1100
,
0000
0210
0000
0012
0000
0000
0000
1310
0000
0000
0000
1103
0000
0010
0000
1100
,
0000
1010
0000
1100
0000
0010
0000
1001
0000
0100
0000
0101
0000
0001
0000
0011
,
0000
1001
0000
1100
0000
1000
0000
0101
0000
0010
0000
1100
0000
0001
0000
0101
,
0000
1001
0000
0101
0000
0010
0000
1100
0000
1000
0000
1001
0000
0100
0000
0011
,
0000
1010
0000
0101
0000
0001
0000
1100
0000
0010
0000
1111
1000
0100
0010
0101
,
0010
0100
1000
0001
1000
0100
0010
1100
0010
0001
0010
0100
0010
0100
1000
0101
,
0010
0100
0010
0001
1000
0100
0010
1100
0010
0001
0010
0100
0010
0100
0010
1001
,
0010
0100
1000
0100
0010
0001
0010
0101
0010
0001
0010
0100
1000
0100
0010
1001
,
0100
1000
0100
0002
0010
0100
1000
0110
1000
0100
0010
2103
0010
0001
0010
3101
,
0000
1000
0000
2001
0010
0100
0010
3101
0000
0001
0000
1020
0100
1000
0100
1031
,
0000
0100
0000
0012
0100
1000
0100
1013
0000
0100
0000
0120
1000
0100
1000
0101
,
1000
0100
1000
0131
0010
0001
0010
0001
0010
0100
1000
0111
0000
0000
0000
1110
,
0000
0110
0000
1001
1000
0110
0100
0101
1000
1001
1000
0111
1000
0100
0001
1100
,
0010
1000
0100
0010
0001
0100
0010
1001
0100
0010
0100
1000
0001
0100
0010
1100
,
0010
0001
0100
0001
1000
0010
0100
1010
0100
1000
0010
0001
0100
1000
0100
0011
,
0100
0010
0100
1000
0010
0001
0010
0101
1000
0100
0010
0001
0100
0010
1000
0011
,
0100
0001
1000
0001
0100
0001
1000
0101
0010
0001
0010
1200
0010
1000
0010
1301
,
0000
0001
0000
0120
0001
0100
1000
0131
0000
0100
0000
0012
0100
1000
0100
1013
,
0000
1000
0000
2100
0010
0001
0010
3101
0000
0001
0000
1002
0010
0100
1000
0110
,
1000
0100
0010
1103
0010
0100
0010
0100
1000
0100
0010
1101
0000
0000
0000
1012
,
0000
0000
0000
1100
0000
0000
0000
0000
0000
0110
0000
0000
0000
0000
0000
1000
0000
0000
0000
0000
0000
0010
0000
0000
0000
0000
0000
0100
0000
0000
0100
0000
0000
1213
0000
0000
0000
0000
0000
0000
0000
0000
0000
0000
0000
0000
0001
0000
,
0000
1010
0000
0311
0000
0100
0010
1100
0000
1001
0000
0101
0000
0001
0000
1100
,
0000
0010
0000
0101
0000
1000
0010
1100
0000
0110
0000
1100
0000
0001
0000
1010
,
0000
0100
0000
0011
0000
1000
0001
0110
0000
1001
0000
0110
0000
0001
0000
1010
,
0000
1000
0000
1100
0000
0001
0010
1100
0000
1010
0000
0101
0000
0010
0000
1001
,
0000
1000
0000
1100
0000
0100
0010
0101
0000
0001
0000
1100
0000
1000
0000
0101
,
0000
0010
0000
1001
0000
1000
0010
0101
0000
1010
0000
0110
0000
0100
0000
0011
,
0000
1000
0000
1001
0000
0001
0100
1010
0000
1100
0000
1010
0000
0001
0000
0011
,
0000
0010
0000
1001
0000
0010
0100
1010
0000
0010
0000
0111
0000
1110
0000
0111
,
0000
0010
0000
1111
0001
0010
0100
1000
0010
0001
0100
1010
0100
0010
1000
0100
,
0001
0100
0010
1001
0100
1000
0010
0001
0010
0001
0100
1010
0100
0010
0001
0100
,
0010
1000
0100
0011
0100
0010
0100
1000
0010
0100
0001
0110
1000
0100
0010
0001
,
0100
0010
0100
1001
0100
0010
0001
0010
0100
1000
0100
0021
1000
0100
1000
0100
,
0001
0100
0001
2130
0010
0100
0010
3101
0000
0001
0000
0102
0010
0100
1000
0113
,
0000
1000
0000
2100
0010
0001
0100
3011
0000
1000
0000
0120
1000
0001
0100
1031
,
0000
0001
0000
0201
0010
0001
0010
1001
0010
0001
1000
0311
1000
0010
0100
1010
,
0100
0010
0001
1110
0000
0000
0000
0111
0000
0101
0000
1010
0100
0001
0100
0001
,
1000
0001
0100
1011
0100
0010
0001
1010
0100
0010
0001
1100
0010
0001
0010
0101
,
0010
0100
1000
0011
0100
0010
0100
1001
0010
0001
0010
1100
0010
1000
0100
1001
,
0010
0001
0100
1010
0100
1000
0010
0101
0010
0001
1000
0110
0001
0010
0100
0011
,
0100
1000
0010
0101
0010
0100
0001
1010
0100
0010
0001
1100
0010
0100
0001
0110
,
0001
1000
0010
1002
1000
0010
0010
1013
0000
0110
0000
2010
0010
0001
0001
3011
,
0000
1100
0000
0201
0001
1000
1000
1301
0000
0101
0000
2100
0100
0010
0010
3011
,
0000
0110
0000
0102
0100
0110
0010
1010
1000
1100
0100
1113
0001
0010
0100
1000
,
0100
0010
0001
1110
0000
0000
0000
0211
0000
1010
0000
1310
0000
0100
0000
0000
,
0010
0000
0000
1101
0010
0100
0010
0001
0010
0100
1000
0100
0010
0001
0010
0100
,
1000
0100
1000
0100
0010
0100
1000
0100
0010
0001
0010
0001
0010
0001
0010
0100
,
1000
0100
0010
0100
0010
0001
0010
0100
1000
0100
0010
0100
0010
0001
0010
0100
,
0010
0100
1000
0100
0000
0001
0010
0100
1000
0100
0000
0010
0000
1000
0100
0010
,
0001
0010
0000
2000
0100
0010
0001
0010
0100
0010
0001
3020
0100
1000
0100
0001
,
0100
1000
0100
0032
0010
0100
1000
0100
0010
0100
1000
0203
0010
0001
0010
1000
,
0010
0001
0010
2300
0100
0010
0001
0110
0100
0011
0001
3120
0001
0100
1000
1100
,
0001
0100
1000
0132
0010
0100
1000
0100
0010
0100
1000
0123
0001
0100
1000
0100
,
0001
0100
1000
0231
0010
0001
0010
1000
0010
0001
0020
2300
0000
0000
0000
0000
,
0030
0110
0000
0111
0100
0010
0101
0000
0001
0010
0101
0000
0011
0000
0110
0000
,
0001
0010
0101
0000
0110
0000
0011
0000
0100
0010
0101
0000
0010
0000
0001
0000
,
0010
0000
3101
0000
1001
0010
1100
0000
1010
0000
0101
0000
1001
0100
0011
0000
,
0110
0000
1001
0000
0101
0010
1001
0000
0011
0000
1100
0000
0110
0000
1001
0000
,
0110
1011
1100
0101
0110
1010
0101
1010
,
1001
0110
1001
0101
0011
1001
1010
1100
,
1001
0101
1010
0101
1001
1010
0110
0101
,
1100
1110
0220
1001
1001
1001
1001
1001
,
1001
0000
0000
0330
1111
0000
0001
0000
0010
0000
0100
0000
0110
0000
0010
0000
0100
0000
1000
0000
1100
0000
1000
0000
0100
0000
0010
0000
0101
0000
0010
0000
,
0001
0010
1010
0100
0010
0001
0101
0010
0100
1000
1001
0100
1000
0100
0011
0100
,
0010
0001
0101
0010
0100
1000
0101
0010
0100
1000
0101
0010
0100
1000
0011
1000
,
0100
0010
1010
0010
0100
1000
1001
1000
0100
0010
0012
0010
0100
1000
1010
0100
,
1000
0100
1113
0001
0110
1000
0101
0000
1101
0000
0101
0010
1001
0010
1100
0000
,
0111
0000
0101
0010
1100
0001
1001
0000
1110
0000
1100
0100
0011
0100
1001
0000
,
1011
0000
1100
1000
0101
0010
0110
0000
1101
0000
0011
0001
0110
1000
0101
0000
,
0111
0000
1101
0000
0000
0000
1021
0000
1100
0000
1001
0100
1000
0100
1000
0100
,
1000
0100
1031
0100
0010
0100
1010
0010
0001
0010
0111
0010
0100
1000
1100
0010
,
0001
0010
1101
0010
1000
0100
1010
0100
0010
0001
0111
1000
0001
0100
1001
0010
,
0001
1000
1101
0010
0001
0100
1001
0010
0001
0010
1110
0001
0010
1000
0101
0010
,
0100
0001
1011
1000
0100
0010
1001
0010
0100
1000
1011
0100
0010
0001
0101
0100
,
1000
0010
0112
1000
1100
0010
1113
0000
1011
0000
1120
0001
0101
1000
1131
0000
,
1110
0000
1120
0001
1100
0001
1131
0000
1110
0000
2100
0001
0110
0001
3111
0000
,
1101
0000
2101
0010
0011
0001
0111
0100
0011
0001
0111
0001
0110
0001
3111
1000
,
0010
0100
1011
0000
0000
0000
1201
0000
1001
0000
0011
0000
0010
0000
0000
0001
,
0000
1311
0000
0000
0000
0000
0000
0000
;

//---------------dance-single - Copied from Copied f----------------
#NOTES:
     dance-single:
     Copied from Copied f:
     Medium:
     15:
     1.000,1.000,1.000,0.256,1.000,1097.000,375.000,52.000,0.000,138.000:
0000
0000
0000
0000
,
0000
0000
0000
0000
0000
0000
0000
0000
0000
0000
0000
0000
0000
0000
0000
0001
,
0001
0001
0000
0100
0100
0100
0000
0010
0010
0010
0000
1000
1000
1000
0000
0100
,
0100
0100
0000
0010
0010
0010
0000
0001
0001
0001
0000
0100
0100
0100
0000
1000
,
1000
1100
0000
0010
0010
1010
0000
0001
0001
1001
0000
0010
0010
0110
0000
1000
,
1000
1010
0000
0010
0010
0011
0000
0001
0001
0101
0000
0110
0000
1000
1000
1111
,
0000
0100
0000
0101
0000
0001
0010
1100
0000
1000
0000
1001
0000
1000
0100
0011
,
0000
0100
0000
0101
0000
0001
0010
1100
0000
1000
0000
1001
0000
0100
0000
0011
,
0000
0110
0000
1100
0000
0110
0000
0011
0000
0110
0000
1100
0000
0110
0000
0111
,
0000
0000
0000
2210
0000
0000
0000
0000
0000
0000
0000
0000
0000
0000
0000
0000
,
0000
0000
0000
0000
0000
0000
0000
0001
0000
0010
0000
3322
0000
0000
0000
0000
,
0000
0000
0000
0000
,
0000
0000
0000
1133
0000
0000
0000
0000
0000
0000
0000
1011
0000
0001
0000
0110
,
0000
1001
0000
0101
0000
0010
0000
1100
0000
0010
0000
0101
0000
0010
0000
1100
,
0000
0011
0000
0110
0000
1000
0000
0101
0000
0100
0000
0110
0000
1001
0000
0100
,
0000
1010
0000
0101
0000
1000
0000
1100
0000
0010
0000
0101
0000
0010
0000
1100
,
0000
0210
0000
0012
0000
0000
0000
1310
0000
0000
0000
1103
0000
0010
0000
1100
,
0000
1010
0000
1100
0000
0010
0000
1001
0000
0100
0000
0101
0000
0001
0000
0011
,
0000
1001
0000
1100
0000
1000
0000
0101
0000
0010
0000
1100
0000
0001
0000
0101
,
0000
1001
0000
0101
0000
0010
0000
1100
0000
1000
0000
1001
0000
0100
0000
0011
,
0000
1010
0000
0101
0000
0001
0000
1100
0000
0010
0000
1111
1000
0100
0010
0101
,
0010
0100
1000
0001
1000
0100
0010
1100
0010
0001
0010
0100
0010
0100
1000
0101
,
0010
0100
0010
0001
1000
0100
0010
1100
0010
0001
0010
0100
0010
0100
0010
1001
,
0010
0100
1000
0100
0010
0001
0010
0101
0010
0001
0010
0100
1000
0100
0010
1001
,
0100
1000
0100
0002
0010
0100
1000
0110
1000
0100
0010
2103
0010
0001
0010
3101
,
0000
1000
0000
2001
0010
0100
0010
3101
0000
0001
0000
1020
0100
1000
0100
1031
,
0000
0100
0000
0012
0100
1000
0100
1013
0000
0100
0000
0120
1000
0100
1000
0101
,
1000
0100
1000
0131
0010
0001
0010
0001
0010
0100
1000
0111
0000
0000
0000
1110
,
0000
0110
0000
1001
1000
0110
0100
0101
1000
1001
1000
0111
1000
0100
0001
1100
,
0010
1000
0100
0010
0001
0100
0010
1001
0100
0010
0100
1000
0001
0100
0010
1100
,
0010
0001
0100
0001
1000
0010
0100
1010
0100
1000
0010
0001
0100
1000
0100
0011
,
0100
0010
0100
1000
0010
0001
0010
0101
1000
0100
0010
0001
0100
0010
1000
0011
,
0100
0001
1000
0001
0100
0001
1000
0101
0010
0001
0010
1200
0010
1000
0010
1301
,
0000
0001
0000
0120
0001
0100
1000
0131
0000
0100
0000
0012
0100
1000
0100
1013
,
0000
1000
0000
2100
0010
0001
0010
3101
0000
0001
0000
1002
0010
0100
1000
0110
,
1000
0100
0010
1103
0010
0100
0010
0100
1000
0100
0010
1101
0000
0000
0000
1012
,
0000
0000
0000
1100
0000
0000
0000
0000
0000
0110
0000
0000
0000
0000
0000
1000
0000
0000
0000
0000
0000
0010
0000
0000
0000
0000
0000
0100
0000
0000
0100
0000
0000
1213
0000
0000
0000
0000
0000
0000
0000
0000
0000
0000
0000
0000
0001
0000
,
0000
1010
0000
0311
0000
0100
0010
1100
0000
1001
0000
0101
0000
0001
0000
1100
,
0000
0010
0000
0101
0000
1000
0010
1100
0000
0110
0000
1100
0000
0001
0000
1010
,
0000
0100
0000
0011
0000
1000
0001
0110
0000
1001
0000
0110
0000
0001
0000
1010
,
0000
1000
0000
1100
0000
0001
0010
1100
0000
1010
0000
0101
0000
0010
0000
1001
,
0000
1000
0000
1100
0000
0100
0010
0101
0000
0001
0000
1100
0000
1000
0000
0101
,
0000
0010
0000
1001
0000
1000
0010
0101
0000
1010
0000
0110
0000
0100
0000
0011
,
0000
1000
0000
1001
0000
0001
0100
1010
0000
1100
0000
1010
0000
0001
0000
0011
,
0000
0010
0000
1001
0000
0010
0100
1010
0000
0010
0000
0111
0000
1110
0000
0111
,
0000
0010
0000
1111
0001
0010
0100
1000
0010
0001
0100
1010
0100
0010
1000
0100
,
0001
0100
0010
1001
0100
1000
0010
0001
0010
0001
0100
1010
0100
0010
0001
0100
,
0010
1000
0100
0011
0100
0010
0100
1000
0010
0100
0001
0110
1000
0100
0010
0001
,
0100
0010
0100
1001
0100
0010
0001
0010
0100
1000
0100
0021
1000
0100
1000
0100
,
0001
0100
0001
2130
0010
0100
0010
3101
0000
0001
0000
0102
0010
0100
1000
0113
,
0000
1000
0000
2100
0010
0001
0100
3011
0000
1000
0000
0120
1000
0001
0100
1031
,
0000
0001
0000
0201
0010
0001
0010
1001
0010
0001
1000
0311
1000
0010
0100
1010
,
0100
0010
0001
1110
0000
0000
0000
0111
0000
0101
0000
1010
0100
0001
0100
0001
,
1000
0001
0100
1011
0100
0010
0001
1010
0100
0010
0001
1100
0010
0001
0010
0101
,
0010
0100
1000
0011
0100
0010
0100
1001
0010
0001
0010
1100
0010
1000
0100
1001
,
0010
0001
0100
1010
0100
1000
0010
0101
0010
0001
1000
0110
0001
0010
0100
0011
,
0100
1000
0010
0101
0010
0100
0001
1010
0100
0010
0001
1100
0010
0100
0001
0110
,
0001
1000
0010
1002
1000
0010
0010
1013
0000
0110
0000
2010
0010
0001
0001
3011
,
0000
1100
0000
0201
0001
1000
1000
1301
0000
0101
0000
2100
0100
0010
0010
3011
,
0000
0110
0000
0102
0100
0110
0010
1010
1000
1100
0100
1113
0001
0010
0100
1000
,
0100
0010
0001
1110
0000
0000
0000
0211
0000
1010
0000
1310
0000
0100
0000
0000
,
0010
0000
0000
1101
0010
0100
0010
0001
0010
0100
1000
0100
0010
0001
0010
0100
,
1000
0100
1000
0100
0010
0100
1000
0100
0010
0001
0010
0001
0010
0001
0010
0100
,
1000
0100
0010
0100
0010
0001
0010
0100
1000
0100
0010
0100
0010
0001
0010
0100
,
0010
0100
1000
0100
0000
0001
0010
0100
1000
0100
0000
0010
0000
1000
0100
0010
,
0001
0010
0000
2000
0100
0010
0001
0010
0100
0010
0001
3020
0100
1000
0100
0001
,
0100
1000
0100
0032
0010
0100
1000
0100
0010
0100
1000
0203
0010
0001
0010
1000
,
0010
0001
0010
2300
0100
0010
0001
0110
0100
0011
0001
3120
0001
0100
1000
1100
,
0001
0100
1000
0132
0010
0100
1000
0100
0010
0100
1000
0123
0001
0100
1000
0100
,
0001
0100
1000
0231
0010
0001
0010
1000
0010
0001
0020
2300
0000
0000
0000
0000
,
0030
0110
0000
0111
0100
0010
0101
0000
0001
0010
0101
0000
0011
0000
0110
0000
,
0001
0010
0101
0000
0110
0000
0011
0000
0100
0010
0101
0000
0010
0000
0001
0000
,
0010
0000
3101
0000
1001
0010
1100
0000
1010
0000
0101
0000
1001
0100
0011
0000
,
0110
0000
1001
0000
0101
0010
1001
0000
0011
0000
1100
0000
0110
0000
1001
0000
,
0110
1011
1100
0101
0110
1010
0101
1010
,
1001
0110
1001
0101
0011
1001
1010
1100
,
1001
0101
1010
0101
1001
1010
0110
0101
,
1100
1110
0220
1001
1001
1001
1001
1001
,
1001
0000
0000
0330
1111
0000
0001
0000
0010
0000
0100
0000
0110
0000
0010
0000
0100
0000
1000
0000
1100
0000
1000
0000
0100
0000
0010
0000
0101
0000
0010
0000
,
0001
0010
1010
0100
0010
0001
0101
0010
0100
1000
1001
0100
1000
0100
0011
0100
,
0010
0001
0101
0010
0100
1000
0101
0010
0100
1000
0101
0010
0100
1000
0011
1000
,
0100
0010
1010
0010
0100
1000
1001
1000
0100
0010
0012
0010
0100
1000
1010
0100
,
1000
0100
1113
0001
0110
1000
0101
0000
1101
0000
0101
0010
1001
0010
1100
0000
,
0111
0000
0101
0010
1100
0001
1001
0000
1110
0000
1100
0100
0011
0100
1001
0000
,
1011
0000
1100
1000
0101
0010
0110
0000
1101
0000
0011
0001
0110
1000
0101
0000
,
0111
0000
1101
0000
0000
0000
1021
0000
1100
0000
1001
0100
1000
0100
1000
0100
,
1000
0100
1031
0100
0010
0100
1010
0010
0001
0010
0111
0010
0100
1000
1100
0010
,
0001
0010
1101
0010
1000
0100
1010
0100
0010
0001
0111
1000
0001
0100
1001
0010
,
0001
1000
1101
0010
0001
0100
1001
0010
0001
0010
1110
0001
0010
1000
0101
0010
,
0100
0001
1011
1000
0100
0010
1001
0010
0100
1000
1011
0100
0010
0001
0101
0100
,
1000
0010
0112
1000
1100
0010
1113
0000
1011
0000
1120
0001
0101
1000
1131
0000
,
1110
0000
1120
0001
1100
0001
1131
0000
1110
0000
2100
0001
0110
0001
3111
0000
,
1101
0000
2101
0010
0011
0001
0111
0100
0011
0001
0111
0001
0110
0001
3111
1000
,
0010
0100
1011
0000
0000
0000
1201
0000
1001
0000
0011
0000
0010
0000
0000
0001
,
0000
1311
0000
0000
0000
0000
0000
0000
;

//---------------dance-double - Copied from Copied f----------------
#NOTES:
     dance-double:
     Copied from Copied f:
     Hard:
     15:
     1.000,1.000,1.000,0.256,1.000,1097.000,375.000,52.000,0.000,138.000:
00000000
00000000
00000000
00000000
,
00000000
00000000
00000000
00000000
00000000
00000000
00000000
00000000
00000000
00000000
00000000
00000000
00000000
00000000
00000000
00010000
,
00010000
00010000
00000000
01000000
01000000
01000000
00000000
00100000
00100000
00100000
00000000
10000000
10000000
10000000
00000000
01000000
,
01000000
01000000
00000000
00100000
00100000
00100000
00000000
00010000
00010000
00010000
00000000
01000000
01000000
01000000
00000000
10000000
,
10000000
11000000
00000000
00100000
00100000
10100000
00000000
00010000
00010000
10010000
00000000
00100000
00100000
01100000
00000000
10000000
,
10000000
10100000
00000000
00100000
00100000
00110000
00000000
00010000
00010000
01010000
00000000
01100000
00000000
10000000
10000000
11110000
,
00000000
01000000
00000000
01010000
00000000
00010000
00100000
11000000
00000000
10000000
00000000
10010000
00000000
10000000
01000000
00110000
,
00000000
01000000
00000000
01010000
00000000
00010000
00100000
11000000
00000000
10000000
00000000
10010000
00000000
01000000
00000000
00110000
,
00000000
01100000
00000000
11000000
00000000
01100000
00000000
00110000
00000000
01100000
00000000
11000000
00000000
01100000
00000000
01110000
,
00000000
00000000
00000000
22100000
00000000
00000000
00000000
00000000
00000000
00000000
00000000
00000000
00000000
00000000
00000000
00000000
,
00000000
00000000
00000000
00000000
00000000
00000000
00000000
00010000
00000000
00100000
00000000
33220000
00000000
00000000
00000000
00000000
,
00000000
00000000
00000000
00000000
,
00000000
00000000
00000000
11330000
00000000
00000000
00000000
00000000
00000000
00000000
00000000
10110000
00000000
00010000
00000000
01100000
,
00000000
10010000
00000000
01010000
00000000
00100000
00000000
11000000
00000000
00100000
00000000
01010000
00000000
00100000
00000000
11000000
,
00000000
00110000
00000000
01100000
00000000
10000000
00000000
01010000
00000000
01000000
00000000
01100000
00000000
10010000
00000000
01000000
,
00000000
10100000
00000000
01010000
00000000
10000000
00000000
11000000
00000000
00100000
00000000
01010000
00000000
00100000
00000000
11000000
,
00000000
02100000
00000000
00120000
00000000
00000000
00000000
13100000
00000000
00000000
00000000
11030000
00000000
00100000
00000000
11000000
,
00000000
10100000
00000000
11000000
00000000
00100000
00000000
10010000
00000000
01000000
00000000
01010000
00000000
00010000
00000000
00110000
,
00000000
10010000
00000000
11000000
00000000
10000000
00000000
01010000
00000000
00100000
00000000
11000000
00000000
00010000
00000000
01010000
,
00000000
10010000
00000000
01010000
00000000
00100000
00000000
11000000
00000000
10000000
00000000
10010000
00000000
01000000
00000000
00110000
,
00000000
10100000
00000000
01010000
00000000
00010000
00000000
11000000
00000000
00100000
00000000
11110000
10000000
01000000
00100000
01010000
,
00100000
01000000
10000000
00010000
10000000
01000000
00100000
11000000
00100000
00010000
00100000
01000000
00100000
01000000
10000000
01010000
,
00100000
01000000
00100000
00010000
10000000
01000000
00100000
11000000
00100000
00010000
00100000
01000000
00100000
01000000
00100000
10010000
,
00100000
01000000
10000000
01000000
00100000
00010000
00100000
01010000
00100000
00010000
00100000
01000000
10000000
01000000
00100000
10010000
,
01000000
10000000
01000000
00020000
00100000
01000000
10000000
01100000
10000000
01000000
00100000
21030000
00100000
00010000
00100000
31010000
,
00000000
10000000
00000000
20010000
00100000
01000000
00100000
31010000
00000000
00010000
00000000
10200000
01000000
10000000
01000000
10310000
,
00000000
01000000
00000000
00120000
01000000
10000000
01000000
10130000
00000000
01000000
00000000
01200000
10000000
01000000
10000000
01010000
,
10000000
01000000
10000000
01310000
00100000
00010000
00100000
00010000
00100000
01000000
10000000
01110000
00000000
00000000
00000000
11100000
,
00000000
01100000
00000000
10010000
10000000
01100000
01000000
01010000
10000000
10010000
10000000
01110000
10000000
01000000
00010000
11000000
,
00100000
10000000
01000000
00100000
00010000
01000000
00100000
10010000
01000000
00100000
01000000
10000000
00010000
01000000
00100000
11000000
,
00100000
00010000
01000000
00010000
10000000
00100000
01000000
10100000
01000000
10000000
00100000
00010000
01000000
10000000
01000000
00110000
,
01000000
00100000
01000000
10000000
00100000
00010000
00100000
01010000
10000000
01000000
00100000
00010000
01000000
00100000
10000000
00110000
,
01000000
00010000
10000000
00010000
01000000
00010000
10000000
01010000
00100000
00010000
00100000
12000000
00100000
10000000
00100000
13010000
,
00000000
00010000
00000000
01200000
00010000
01000000
10000000
01310000
00000000
01000000
00000000
00120000
01000000
10000000
01000000
10130000
,
00000000
10000000
00000000
21000000
00100000
00010000
00100000
31010000
00000000
00010000
00000000
10020000
00100000
01000000
10000000
01100000
,
10000000
01000000
00100000
11030000
00100000
01000000
00100000
01000000
10000000
01000000
00100000
11010000
00000000
00000000
00000000
10120000
,
00000000
00000000
00000000
11000000
00000000
00000000
00000000
00000000
00000000
01100000
00000000
00000000
00000000
00000000
00000000
10000000
00000000
00000000
00000000
00000000
00000000
00100000
00000000
00000000
00000000
00000000
00000000
01000000
00000000
00000000
01000000
00000000
00000000
12130000
00000000
00000000
00000000
00000000
00000000
00000000
00000000
00000000
00000000
00000000
00000000
00000000
00010000
00000000
,
00000000
10100000
00000000
03110000
00000000
01000000
00100000
11000000
00000000
10010000
00000000
01010000
00000000
00010000
00000000
11000000
,
00000000
00100000
00000000
01010000
00000000
10000000
00100000
11000000
00000000
01100000
00000000
11000000
00000000
00010000
00000000
10100000
,
00000000
01000000
00000000
00110000
00000000
10000000
00010000
01100000
00000000
10010000
00000000
01100000
00000000
00010000
00000000
10100000
,
00000000
10000000
00000000
11000000
00000000
00010000
00100000
11000000
00000000
10100000
00000000
01010000
00000000
00100000
00000000
10010000
,
00000000
10000000
00000000
11000000
00000000
01000000
00100000
01010000
00000000
00010000
00000000
11000000
00000000
10000000
00000000
01010000
,
00000000
00100000
00000000
10010000
00000000
10000000
00100000
01010000
00000000
10100000
00000000
01100000
00000000
01000000
00000000
00110000
,
00000000
10000000
00000000
10010000
00000000
00010000
01000000
10100000
00000000
11000000
00000000
10100000
00000000
00010000
00000000
00110000
,
00000000
00100000
00000000
10010000
00000000
00100000
01000000
10100000
00000000
00100000
00000000
01110000
00000000
11100000
00000000
01110000
,
00000000
00100000
00000000
11110000
00010000
00100000
01000000
10000000
00100000
00010000
01000000
10100000
01000000
00100000
10000000
01000000
,
00010000
01000000
00100000
10010000
01000000
10000000
00100000
00010000
00100000
00010000
01000000
10100000
01000000
00100000
00010000
01000000
,
00100000
10000000
01000000
00110000
01000000
00100000
01000000
10000000
00100000
01000000
00010000
01100000
10000000
01000000
00100000
00010000
,
01000000
00100000
01000000
10010000
01000000
00100000
00010000
00100000
01000000
10000000
01000000
00210000
10000000
01000000
10000000
01000000
,
00010000
01000000
00010000
21300000
00100000
01000000
00100000
31010000
00000000
00010000
00000000
01020000
00100000
01000000
10000000
01130000
,
00000000
10000000
00000000
21000000
00100000
00010000
01000000
30110000
00000000
10000000
00000000
01200000
10000000
00010000
01000000
10310000
,
00000000
00010000
00000000
02010000
00100000
00010000
00100000
10010000
00100000
00010000
10000000
03110000
10000000
00100000
01000000
10100000
,
01000000
00100000
00010000
11100000
00000000
00000000
00000000
01110000
00000000
01010000
00000000
10100000
01000000
00010000
01000000
00010000
,
10000000
00010000
01000000
10110000
01000000
00100000
00010000
10100000
01000000
00100000
00010000
11000000
00100000
00010000
00100000
01010000
,
00100000
01000000
10000000
00110000
01000000
00100000
01000000
10010000
00100000
00010000
00100000
11000000
00100000
10000000
01000000
10010000
,
00100000
00010000
01000000
10100000
01000000
10000000
00100000
01010000
00100000
00010000
10000000
01100000
00010000
00100000
01000000
00110000
,
01000000
10000000
00100000
01010000
00100000
01000000
00010000
10100000
01000000
00100000
00010000
11000000
00100000
01000000
00010000
01100000
,
00010000
10000000
00100000
10020000
10000000
00100000
00100000
10130000
00000000
01100000
00000000
20100000
00100000
00010000
00010000
30110000
,
00000000
11000000
00000000
02010000
00010000
10000000
10000000
13010000
00000000
01010000
00000000
21000000
01000000
00100000
00100000
30110000
,
00000000
01100000
00000000
01020000
01000000
01100000
00100000
10100000
10000000
11000000
01000000
11130000
00010000
00100000
01000000
10000000
,
01000000
00100000
00010000
11100000
00000000
00000000
00000000
02110000
00000000
10100000
00000000
13100000
00000000
01000000
00000000
00000000
,
00100000
00000000
00000000
11010000
00100000
01000000
00100000
00010000
00100000
01000000
10000000
01000000
00100000
00010000
00100000
01000000
,
10000000
01000000
10000000
01000000
00100000
01000000
10000000
01000000
00100000
00010000
00100000
00010000
00100000
00010000
00100000
01000000
,
10000000
01000000
00100000
01000000
00100000
00010000
00100000
01000000
10000000
01000000
00100000
01000000
00100000
00010000
00100000
01000000
,
00100000
01000000
10000000
01000000
00000000
00010000
00100000
01000000
10000000
01000000
00000000
00100000
00000000
10000000
01000000
00100000
,
00010000
00100000
00000000
20000000
01000000
00100000
00010000
00100000
01000000
00100000
00010000
30200000
01000000
10000000
01000000
00010000
,
01000000
10000000
01000000
00320000
00100000
01000000
10000000
01000000
00100000
01000000
10000000
02030000
00100000
00010000
00100000
10000000
,
00100000
00010000
00100000
23000000
01000000
00100000
00010000
01100000
01000000
00110000
00010000
31200000
00010000
01000000
10000000
11000000
,
00010000
01000000
10000000
01320000
00100000
01000000
10000000
01000000
00100000
01000000
10000000
01230000
00010000
01000000
10000000
01000000
,
00010000
01000000
10000000
02310000
00100000
00010000
00100000
10000000
00100000
00010000
00200000
23000000
00000000
00000000
00000000
00000000
,
00300000
01100000
00000000
01110000
01000000
00100000
01010000
00000000
00010000
00100000
01010000
00000000
00110000
00000000
01100000
00000000
,
00010000
00100000
01010000
00000000
01100000
00000000
00110000
00000000
01000000
00100000
01010000
00000000
00100000
00000000
00010000
00000000
,
00100000
00000000
31010000
00000000
10010000
00100000
11000000
00000000
10100000
00000000
01010000
00000000
10010000
01000000
00110000
00000000
,
01100000
00000000
10010000
00000000
01010000
00100000
10010000
00000000
00110000
00000000
11000000
00000000
01100000
00000000
10010000
00000000
,
01100000
10110000
11000000
01010000
01100000
10100000
01010000
10100000
,
10010000
01100000
10010000
01010000
00110000
10010000
10100000
11000000
,
10010000
01010000
10100000
01010000
10010000
10100000
01100000
01010000
,
11000000
11100000
02200000
10010000
10010000
10010000
10010000
10010000
,
10010000
00000000
00000000
03300000
11110000
00000000
00010000
00000000
00100000
00000000
01000000
00000000
01100000
00000000
00100000
00000000
01000000
00000000
10000000
00000000
11000000
00000000
10000000
00000000
01000000
00000000
00100000
00000000
01010000
00000000
00100000
00000000
,
00010000
00100000
10100000
01000000
00100000
00010000
01010000
00100000
01000000
10000000
10010000
01000000
10000000
01000000
00110000
01000000
,
00100000
00010000
01010000
00100000
01000000
10000000
01010000
00100000
01000000
10000000
01010000
00100000
01000000
10000000
00110000
10000000
,
01000000
00100000
10100000
00100000
01000000
10000000
10010000
10000000
01000000
00100000
00120000
00100000
01000000
10000000
10100000
01000000
,
10000000
01000000
11130000
00010000
01100000
10000000
01010000
00000000
11010000
00000000
01010000
00100000
10010000
00100000
11000000
00000000
,
01110000
00000000
01010000
00100000
11000000
00010000
10010000
00000000
11100000
00000000
11000000
01000000
00110000
01000000
10010000
00000000
,
10110000
00000000
11000000
10000000
01010000
00100000
01100000
00000000
11010000
00000000
00110000
00010000
01100000
10000000
01010000
00000000
,
01110000
00000000
11010000
00000000
00000000
00000000
10210000
00000000
11000000
00000000
10010000
01000000
10000000
01000000
10000000
01000000
,
10000000
01000000
10310000
01000000
00100000
01000000
10100000
00100000
00010000
00100000
01110000
00100000
01000000
10000000
11000000
00100000
,
00010000
00100000
11010000
00100000
10000000
01000000
10100000
01000000
00100000
00010000
01110000
10000000
00010000
01000000
10010000
00100000
,
00010000
10000000
11010000
00100000
00010000
01000000
10010000
00100000
00010000
00100000
11100000
00010000
00100000
10000000
01010000
00100000
,
01000000
00010000
10110000
10000000
01000000
00100000
10010000
00100000
01000000
10000000
10110000
01000000
00100000
00010000
01010000
01000000
,
10000000
00100000
01120000
10000000
11000000
00100000
11130000
00000000
10110000
00000000
11200000
00010000
01010000
10000000
11310000
00000000
,
11100000
00000000
11200000
00010000
11000000
00010000
11310000
00000000
11100000
00000000
21000000
00010000
01100000
00010000
31110000
00000000
,
11010000
00000000
21010000
00100000
00110000
00010000
01110000
01000000
00110000
00010000
01110000
00010000
01100000
00010000
31110000
10000000
,
00100000
01000000
10110000
00000000
00000000
00000000
12010000
00000000
10010000
00000000
00110000
00000000
00100000
00000000
00000000
00010000
,
00000000
13110000
00000000
00000000
00000000
00000000
00000000
00000000
;

//---------------dance-solo - Copied from Copied f----------------
#NOTES:
     dance-solo:
     Copied from Copied f:
     Hard:
     15:
     1.000,1.000,1.000,0.256,1.000,1097.000,375.000,52.000,0.000,138.000:
000000
000000
000000
000000
,
000000
000000
000000
000000
000000
000000
000000
000000
000000
000000
000000
000000
000000
000000
000000
000100
,
000100
000100
000000
010000
010000
010000
000000
001000
001000
001000
000000
100000
100000
100000
000000
010000
,
010000
010000
000000
001000
001000
001000
000000
000100
000100
000100
000000
010000
010000
010000
000000
100000
,
100000
110000
000000
001000
001000
101000
000000
000100
000100
100100
000000
001000
001000
011000
000000
100000
,
100000
101000
000000
001000
001000
001100
000000
000100
000100
010100
000000
011000
000000
100000
100000
111100
,
000000
010000
000000
010100
000000
000100
001000
110000
000000
100000
000000
100100
000000
100000
010000
001100
,
000000
010000
000000
010100
000000
000100
001000
110000
000000
100000
000000
100100
000000
010000
000000
001100
,
000000
011000
000000
110000
000000
011000
000000
001100
000000
011000
000000
110000
000000
011000
000000
011100
,
000000
000000
000000
221000
000000
000000
000000
000000
000000
000000
000000
000000
000000
000000
000000
000000
,
000000
000000
000000
000000
000000
000000
000000
000100
000000
001000
000000
332200
000000
000000
000000
000000
,
000000
000000
000000
000000
,
000000
000000
000000
113300
000000
000000
000000
000000
000000
000000
000000
101100
000000
000100
000000
011000
,
000000
100100
000000
010100
000000
001000
000000
110000
000000
001000
000000
010100
000000
001000
000000
110000
,
000000
001100
000000
011000
000000
100000
000000
010100
000000
010000
000000
011000
000000
100100
000000
010000
,
000000
101000
000000
010100
000000
100000
000000
110000
000000
001000
000000
010100
000000
001000
000000
110000
,
000000
021000
000000
001200
000000
000000
000000
131000
000000
000000
000000
110300
000000
001000
000000
110000
,
000000
101000
000000
110000
000000
001000
000000
100100
000000
010000
000000
010100
000000
000100
000000
001100
,
000000
100100
000000
110000
000000
100000
000000
010100
000000
001000
000000
110000
000000
000100
000000
010100
,
000000
100100
000000
010100
000000
001000
000000
110000
000000
100000
000000
100100
000000
010000
000000
001100
,
000000
101000
000000
010100
000000
000100
000000
110000
000000
001000
000000
111100
100000
010000
001000
010100
,
001000
010000
100000
000100
100000
010000
001000
110000
001000
000100
001000
010000
001000
010000
100000
010100
,
001000
010000
001000
000100
100000
010000
001000
110000
001000
000100
001000
010000
001000
010000
001000
100100
,
001000
010000
100000
010000
001000
000100
001000
010100
001000
000100
001000
010000
100000
010000
001000
100100
,
010000
100000
010000
000200
001000
010000
100000
011000
100000
010000
001000
210300
001000
000100
001000
310100
,
000000
100000
000000
200100
001000
010000
001000
310100
000000
000100
000000
102000
010000
100000
010000
103100
,
000000
010000
000000
001200
010000
100000
010000
101300
000000
010000
000000
012000
100000
010000
100000
010100
,
100000
010000
100000
013100
001000
000100
001000
000100
001000
010000
100000
011100
000000
000000
000000
111000
,
000000
011000
000000
100100
100000
011000
010000
010100
100000
100100
100000
011100
100000
010000
000100
110000
,
001000
100000
010000
001000
000100
010000
001000
100100
010000
001000
010000
100000
000100
010000
001000
110000
,
001000
000100
010000
000100
100000
001000
010000
101000
010000
100000
001000
000100
010000
100000
010000
001100
,
010000
001000
010000
100000
001000
000100
001000
010100
100000
010000
001000
000100
010000
001000
100000
001100
,
010000
000100
100000
000100
010000
000100
100000
010100
001000
000100
001000
120000
001000
100000
001000
130100
,
000000
000100
000000
012000
000100
010000
100000
013100
000000
010000
000000
001200
010000
100000
010000
101300
,
000000
100000
000000
210000
001000
000100
001000
310100
000000
000100
000000
100200
001000
010000
100000
011000
,
100000
010000
001000
110300
001000
010000
001000
010000
100000
010000
001000
110100
000000
000000
000000
101200
,
000000
000000
000000
110000
000000
000000
000000
000000
000000
011000
000000
000000
000000
000000
000000
100000
000000
000000
000000
000000
000000
001000
000000
000000
000000
000000
000000
010000
000000
000000
010000
000000
000000
121300
000000
000000
000000
000000
000000
000000
000000
000000
000000
000000
000000
000000
000100
000000
,
000000
101000
000000
031100
000000
010000
001000
110000
000000
100100
000000
010100
000000
000100
000000
110000
,
000000
001000
000000
010100
000000
100000
001000
110000
000000
011000
000000
110000
000000
000100
000000
101000
,
000000
010000
000000
001100
000000
100000
000100
011000
000000
100100
000000
011000
000000
000100
000000
101000
,
000000
100000
000000
110000
000000
000100
001000
110000
000000
101000
000000
010100
000000
001000
000000
100100
,
000000
100000
000000
110000
000000
010000
001000
010100
000000
000100
000000
110000
000000
100000
000000
010100
,
000000
001000
000000
100100
000000
100000
001000
010100
000000
101000
000000
011000
000000
010000
000000
001100
,
000000
100000
000000
100100
000000
000100
010000
101000
000000
110000
000000
101000
000000
000100
000000
001100
,
000000
001000
000000
100100
000000
001000
010000
101000
000000
001000
000000
011100
000000
111000
000000
011100
,
000000
001000
000000
111100
000100
001000
010000
100000
001000
000100
010000
101000
010000
001000
100000
010000
,
000100
010000
001000
100100
010000
100000
001000
000100
001000
000100
010000
101000
010000
001000
000100
010000
,
001000
100000
010000
001100
010000
001000
010000
100000
001000
010000
000100
011000
100000
010000
001000
000100
,
010000
001000
010000
100100
010000
001000
000100
001000
010000
100000
010000
002100
100000
010000
100000
010000
,
000100
010000
000100
213000
001000
010000
001000
310100
000000
000100
000000
010200
001000
010000
100000
011300
,
000000
100000
000000
210000
001000
000100
010000
301100
000000
100000
000000
012000
100000
000100
010000
103100
,
000000
000100
000000
020100
001000
000100
001000
100100
001000
000100
100000
031100
100000
001000
010000
101000
,
010000
001000
000100
111000
000000
000000
000000
011100
000000
010100
000000
101000
010000
000100
010000
000100
,
100000
000100
010000
101100
010000
001000
000100
101000
010000
001000
000100
110000
001000
000100
001000
010100
,
001000
010000
100000
001100
010000
001000
010000
100100
001000
000100
001000
110000
001000
100000
010000
100100
,
001000
000100
010000
101000
010000
100000
001000
010100
001000
000100
100000
011000
000100
001000
010000
001100
,
010000
100000
001000
010100
001000
010000
000100
101000
010000
001000
000100
110000
001000
010000
000100
011000
,
000100
100000
001000
100200
100000
001000
001000
101300
000000
011000
000000
201000
001000
000100
000100
301100
,
000000
110000
000000
020100
000100
100000
100000
130100
000000
010100
000000
210000
010000
001000
001000
301100
,
000000
011000
000000
010200
010000
011000
001000
101000
100000
110000
010000
111300
000100
001000
010000
100000
,
010000
001000
000100
111000
000000
000000
000000
021100
000000
101000
000000
131000
000000
010000
000000
000000
,
001000
000000
000000
110100
001000
010000
001000
000100
001000
010000
100000
010000
001000
000100
001000
010000
,
100000
010000
100000
010000
001000
010000
100000
010000
001000
000100
001000
000100
001000
000100
001000
010000
,
100000
010000
001000
010000
001000
000100
001000
010000
100000
010000
001000
010000
001000
000100
001000
010000
,
001000
010000
100000
010000
000000
000100
001000
010000
100000
010000
000000
001000
000000
100000
010000
001000
,
000100
001000
000000
200000
010000
001000
000100
001000
010000
001000
000100
302000
010000
100000
010000
000100
,
010000
100000
010000
003200
001000
010000
100000
010000
001000
010000
100000
020300
001000
000100
001000
100000
,
001000
000100
001000
230000
010000
001000
000100
011000
010000
001100
000100
312000
000100
010000
100000
110000
,
000100
010000
100000
013200
001000
010000
100000
010000
001000
010000
100000
012300
000100
010000
100000
010000
,
000100
010000
100000
023100
001000
000100
001000
100000
001000
000100
002000
230000
000000
000000
000000
000000
,
003000
011000
000000
011100
010000
001000
010100
000000
000100
001000
010100
000000
001100
000000
011000
000000
,
000100
001000
010100
000000
011000
000000
001100
000000
010000
001000
010100
000000
001000
000000
000100
000000
,
001000
000000
310100
000000
100100
001000
110000
000000
101000
000000
010100
000000
100100
010000
001100
000000
,
011000
000000
100100
000000
010100
001000
100100
000000
001100
000000
110000
000000
011000
000000
100100
000000
,
011000
101100
110000
010100
011000
101000
010100
101000
,
100100
011000
100100
010100
001100
100100
101000
110000
,
100100
010100
101000
010100
100100
101000
011000
010100
,
110000
111000
022000
100100
100100
100100
100100
100100
,
100100
000000
000000
033000
111100
000000
000100
000000
001000
000000
010000
000000
011000
000000
001000
000000
010000
000000
100000
000000
110000
000000
100000
000000
010000
000000
001000
000000
010100
000000
001000
000000
,
000100
001000
101000
010000
001000
000100
010100
001000
010000
100000
100100
010000
100000
010000
001100
010000
,
001000
000100
010100
001000
010000
100000
010100
001000
010000
100000
010100
001000
010000
100000
001100
100000
,
010000
001000
101000
001000
010000
100000
100100
100000
010000
001000
001200
001000
010000
100000
101000
010000
,
100000
010000
111300
000100
011000
100000
010100
000000
110100
000000
010100
001000
100100
001000
110000
000000
,
011100
000000
010100
001000
110000
000100
100100
000000
111000
000000
110000
010000
001100
010000
100100
000000
,
101100
000000
110000
100000
010100
001000
011000
000000
110100
000000
001100
000100
011000
100000
010100
000000
,
011100
000000
110100
000000
000000
000000
102100
000000
110000
000000
100100
010000
100000
010000
100000
010000
,
100000
010000
103100
010000
001000
010000
101000
001000
000100
001000
011100
001000
010000
100000
110000
001000
,
000100
001000
110100
001000
100000
010000
101000
010000
001000
000100
011100
100000
000100
010000
100100
001000
,
000100
100000
110100
001000
000100
010000
100100
001000
000100
001000
111000
000100
001000
100000
010100
001000
,
010000
000100
101100
100000
010000
001000
100100
001000
010000
100000
101100
010000
001000
000100
010100
010000
,
100000
001000
011200
100000
110000
001000
111300
000000
101100
000000
112000
000100
010100
100000
113100
000000
,
111000
000000
112000
000100
110000
000100
113100
000000
111000
000000
210000
000100
011000
000100
311100
000000
,
110100
000000
210100
001000
001100
000100
011100
010000
001100
000100
011100
000100
011000
000100
311100
100000
,
001000
010000
101100
000000
000000
000000
120100
000000
100100
000000
001100
000000
001000
000000
000000
000100
,
000000
131100
000000
000000
000000
000000
000000
000000
;
